top of page

Bianca Hopes "The B" Group

Public·38 members
Andrew Martin
Andrew Martin

Captain America Civil War 2016 Hd Tc X264 Ac3 Cpg


Captain America Civil War (2016) 1080p[Dual Audio][ENG(5.1)-HINDI(5.1)]PHDR Storyline :With many people fearing the actions of super heroes, the government decides to push for the Hero Registration Act, a law that limits a hero's actions. This results in a division in The Avengers. Iron Man stands with this Act, claiming that their actions must be kept in check otherwise cities will continue to be destroyed, but Captain America feels that saving the world is daring enough and that they cannot rely on the government to protect the world. This escalates into an all-out war between Team Iron Man (Iron Man, Black Panther, Vision, Black Widow, War Machine, and Spiderman) and Team Captain America (Captain America, Bucky Barnes, Falcon, Sharon Carter, Scarlet Witch, Hawkeye, and Ant Man) while a new villain emerges. GeneralComplete name : Captain America Civil War (2016) 1080p[Dual Audio][ENG(5.1)-HINDI(5.1)]PHDRFormat : MatroskaFormat version : Version 4 / Version 2File size : 5.36 GiBDuration : 2h 27mnOverall bit rate : 5 194 KbpsMovie name : Captain America Civil War (2016) 1080p[Dual Audio][ENG(5.1)-HINDI(5.1)]PHDRVideoID : 1Format : AVCFormat/Info : Advanced Video CodecFormat profile : [email protected] Format settings, CABAC : YesFormat settings, ReFrames : 5 framesCodec ID : V_MPEG4/ISO/AVCDuration : 2h 27mnBit rate : 3 900 KbpsWidth : 1 920 pixelsHeight : 804 pixelsDisplay aspect ratio : 2.40:1Frame rate mode : ConstantFrame rate : 23.976 (24000/1001) fpsColor space : YUVChroma subsampling : 4:2:0Bit depth : 8 bitsScan type : ProgressiveBits/(Pixel*Frame) : 0.105Stream size : 4.02 GiB (75%)Title : x264, 1080p24Language : EnglishDefault : YesForced : NoAudio #1ID : 2Format : AC-3Format/Info : Audio Coding 3Mode extension : CM (complete main)Format settings, Endianness : BigCodec ID : A_AC3Duration : 2h 27mnBit rate mode : ConstantBit rate : 640 KbpsChannel(s) : 6 channelsChannel positions : Front: L C R, Side: L R, LFESampling rate : 48.0 KHzFrame rate : 31.250 fps (1536 spf)Compression mode : LossyStream size : 676 MiB (12%)Title : Bluray PHDRLanguage : HindiDefault : YesForced : NoAudio #2ID : 3Format : AC-3Format/Info : Audio Coding 3Mode extension : CM (complete main)Format settings, Endianness : BigCodec ID : A_AC3Duration : 2h 27mnBit rate mode : ConstantBit rate : 640 KbpsChannel(s) : 6 channelsChannel positions : Front: L C R, Side: L R, LFESampling rate : 48.0 KHzFrame rate : 31.250 fps (1536 spf)Compression mode : LossyStream size : 676 MiB (12%)Title : Bluray PHDRLanguage : EnglishDefault : NoForced : NoTextID : 4Format : PGSMuxing mode : zlibCodec ID : S_HDMV/PGSCodec ID/Info : Picture based subtitle format used on BDs/HD-DVDsDuration : 2h 26mnBit rate : 11.4 KbpsCount of elements : 4210Stream size : 12.0 MiB (0%)Title : Bluray SDHLanguage : EnglishDefault : YesForced : NoMenu : YES With NAME NOTE : 1. SEEDING FROM HIGH SPEED SERVER, ENJOY MAX DOWNLOAD SPEED ;)2. HINDI AUDIO FROM OWN BLURAY3. ENjOY THe PERFECTION, FOR THOSE WHO LIKE PERFECTION4. FOR MORE DETAILS AND UPCOMING U CAN CHECK MY FACEBOOK PAGEFIRST ON NET Brought to you by PHDR...!




captain america civil war 2016 hd tc x264 ac3 cpg


About

Welcome to the group! You can connect with other members, ge...

Members

  • A H
    Aleasha Hatwood
  • Kelly James
    Kelly James
  • Chrystal Lucas-Ross
    Chrystal Lucas-Ross
  • Aja Burks
    Aja Burks
bottom of page